Torrent Details

Goon Last of the Enforcers 2017 BRRip XviD AC3<font color=#ccc>-EVO</font>
Goon Last of the Enforcers 2017 BRRip XviD AC3-EVO
Size1.4 GB in 3 files
ReleasesAdded on 21.09.2017 at 15:27 into the Movies category by Unknown.
Status0 seeds & 0 peers.
Hashd4823da63802dc9fb4d88e268cc51fef095b3218
Rating
  • YourBT Visitors

Status This torrent has been verified.
*

Torrent Description

Goon.Last.of.the.Enforcers.2017.BRRip.XviD.AC3-EVO

ImDb: http://www.imdb.com/title/tt2417712



Complete name : Goon.Last.of.the.Enforcers.2017.BRRip.XviD.AC3-EVO.avi
Format : AVI
Format/Info : Audio Video Interleave
File size : 1.38 GiB
Duration : 1 h 41 min
Overall bit rate : 1 956 kb/s
Writing library : VirtualDub build 32593/release

Video
ID : 0
Format : MPEG-4 Visual
Format profile : Advanced [email protected]
Format settings, BVOP : 2
Format settings, QPel : No
Format settings, GMC : No warppoints
Format settings, Matrix : Default (H.263)
Muxing mode : Packed bitstream
Codec ID : XVID
Codec ID/Hint : XviD
Duration : 1 h 41 min
Bit rate : 1 499 kb/s
Width : 720 pixels
Height : 304 pixels
Display aspect ratio : 2.35:1
Frame rate : 23.976 (24000/1001) FPS
Color space : YUV
Chroma subsampling : 4:2:0
Bit depth : 8 bits
Scan type : Progressive
Compression mode : Lossy
Bits/(Pixel*Frame) : 0.286
Stream size : 1.06 GiB (77%)
Writing library : XviD 66

Audio
ID : 1
Format : AC-3
Format/Info : Audio Coding 3
Format settings, Endianness : Big
Codec ID : 2000
Duration : 1 h 41 min
Bit rate mode : Constant
Bit rate : 448 kb/s
Channel(s) : 6 channels
Channel positions : Front: L C R, Side: L R, LFE
Sampling rate : 48.0 kHz
Frame rate : 31.250 FPS (1536 spf)
Bit depth : 16 bits
Compression mode : Lossy
Stream size : 324 MiB (23%)
Alignment : Aligned on interleaves
Interleave, duration : 42 ms (1.00 video frame)
Interleave, preload duration : 512 ms
Service kind : Complete Main





Similar Torrents

TORRENT NAMESIZESEEDSPEERS
1.4 GB00
1.4 GB00
1.5 GB00
1.3 GB00
1.4 GB00
1.4 GB00
756 MB00
751 MB00
3.1 GB00
1.9 GB00
1.7 GB00
1.7 GB00
2.9 GB00
1.7 GB00

Torrent Trackers

Files inside this torrent

FILENAMESIZE
icon Goon.Last.of.the.Enforcers.2017.BRRip.XviD.AC3-EVO.avi1.4 GB
icon Goon.Last.of.the.Enforcers.2017.BRRip.XviD.AC3-EVO.nfo698 B
icon Sample/sample.avi6.4 MB